<?xml version="1.0" standalone="no"?>
<!DOCTYPE svg PUBLIC "-//W3C//DTD SVG 1.1//EN" "http://www.w3.org/Graphics/SVG/1.1/DTD/svg11.dtd">
<svg xmlns="http://www.w3.org/2000/svg">
<metadata>IconScout</metadata>
<defs>
<font id="unicons-8" horiz-adv-x="1000" >
<font-face font-family="unicons-8" font-weight="400" font-stretch="normal" units-per-em="1000" ascent="850" descent="-150" />
<missing-glyph horiz-adv-x="1000" />
<glyph glyph-name="envelope-add" unicode="&#xe9e2;" d="M708 558h42v-41a42 42 0 0 1 83 0v41h42a42 42 0 0 1 0 84h-42v41a42 42 0 0 1-83 0v-41h-42a42 42 0 0 1 0-84z m167-166a42 42 0 0 1-42-42v-250a42 42 0 0 0-41-42h-584a42 42 0 0 0-41 42v400l245-246a125 125 0 0 1 176 0l103 103a42 42 0 0 1-59 59l-103-103a42 42 0 0 0-58 0l-246 245h317a42 42 0 0 1 0 84h-334a125 125 0 0 1-125-125v-417a125 125 0 0 1 125-125h584a125 125 0 0 1 125 125v250a42 42 0 0 1-42 42z" horiz-adv-x="1000" />

<glyph glyph-name="envelope-exclamation" unicode="&#xe9e3;" d="M875 288a42 42 0 0 1-42-42v-167a42 42 0 0 0-41-41h-584a42 42 0 0 0-41 41v400l245-245a125 125 0 0 1 176 0l150 149a42 42 0 0 1-59 59l-149-149a42 42 0 0 0-60 0l-245 245h483a42 42 0 0 1 0 83h-500a125 125 0 0 1-125-125v-417a125 125 0 0 1 125-125h584a125 125 0 0 1 125 125v167a42 42 0 0 1-42 42z m0 458a42 42 0 0 1-42-42v-166a42 42 0 0 1 84 0v166a42 42 0 0 1-42 42z m-8-292a27 27 0 0 1-8-2 32 32 0 0 1-7-4l-7-5a44 44 0 0 1-12-30 51 51 0 0 1 0-8 25 25 0 0 1 3-7 32 32 0 0 1 4-8 66 66 0 0 1 5-6 42 42 0 0 1 59 0l5 6a32 32 0 0 1 3 8 25 25 0 0 1 3 7 51 51 0 0 1 0 8 42 42 0 0 1-50 42z" horiz-adv-x="1000" />

<glyph glyph-name="phone-slash" unicode="&#xe9e4;" d="M205 304a42 42 0 0 1 35-19 42 42 0 0 1 35 65 708 708 0 0 0-103 285 42 42 0 0 0 10 34 42 42 0 0 0 32 14h125a42 42 0 0 0 41-33c0-10 4-18 6-28l0-5a430 430 0 0 1 19-64l-57-28a42 42 0 0 1-22-24 42 42 0 0 1 0-32c4-9 8-17 13-26a42 42 0 0 1 57-16 42 42 0 0 1 21 39l24 9a83 83 0 0 1 44 103 388 388 0 0 0-17 55l0 4c0 8-3 16-4 24a125 125 0 0 1-124 106h-125a125 125 0 0 1-95-42 125 125 0 0 1-30-100 794 794 0 0 1 115-321z m608 9l-25 5-3 0a388 388 0 0 0-55 16 83 83 0 0 1-103-42l-9-19a516 516 0 0 0-80 57l367 366a42 42 0 1 1-60 59l-750-750a42 42 0 0 1 0-59 42 42 0 0 1 60 0l191 192a795 795 0 0 1 429-197 112 112 0 0 1 16 0 125 125 0 0 1 84 31 125 125 0 0 1 41 94v125a125 125 0 0 1-103 122z m20-250a42 42 0 0 0-14-31 42 42 0 0 0-34-10 711 711 0 0 0-380 174l73 74a612 612 0 0 1 141-92 42 42 0 0 1 32 0 42 42 0 0 1 24 21l26 59a500 500 0 0 1 67-20l4 0 29-5a42 42 0 0 0 32-42z" horiz-adv-x="1000" />

<glyph glyph-name="outgoing-call" unicode="&#xe9e5;" d="M810 308c-9 0-19 3-28 5a393 393 0 0 0-54 17 83 83 0 0 1-104-42l-9-19a507 507 0 0 0-111 84 507 507 0 0 0-83 110l17 12a83 83 0 0 1 42 103 430 430 0 0 0-16 55c-2 9-4 19-5 28a125 125 0 0 1-125 104h-125a125 125 0 0 1-125-142 792 792 0 0 1 688-686l16 0a125 125 0 0 1 83 32 125 125 0 0 1 42 94v125a125 125 0 0 1-103 120z m21-250a42 42 0 0 0-14-31 44 44 0 0 0-34-10 708 708 0 0 0-613 616 45 45 0 0 0 10 34 42 42 0 0 0 31 14h125a42 42 0 0 0 42-33q2-17 6-34a463 463 0 0 1 19-64l-58-27a42 42 0 0 1-20-56 604 604 0 0 1 291-292 42 42 0 0 1 32 0 42 42 0 0 1 24 22l26 58a570 570 0 0 1 65-19q17-3 34-6a42 42 0 0 0 33-42z m80 680a42 42 0 0 1-23 23 42 42 0 0 1-16 3h-166a42 42 0 1 1 0-83h66l-137-138a42 42 0 0 1 0-58 42 42 0 0 1 58 0l138 137v-66a42 42 0 0 1 83 0v167a42 42 0 0 1-3 15z" horiz-adv-x="1000" />

<glyph glyph-name="envelope" unicode="&#xe9e6;" d="M792 683h-584a125 125 0 0 1-125-125v-416a125 125 0 0 1 125-125h584a125 125 0 0 1 125 125v416a125 125 0 0 1-125 125z m-17-83l-245-245a42 42 0 0 0-60 0l-245 245z m58-458a42 42 0 0 0-41-42h-584a42 42 0 0 0-41 42v399l245-245a125 125 0 0 1 176 0l245 245z" horiz-adv-x="1000" />

<glyph glyph-name="phone" unicode="&#xe9e7;" d="M810 308c-9 0-19 3-28 5a393 393 0 0 0-54 17 83 83 0 0 1-104-42l-9-19a507 507 0 0 0-111 84 507 507 0 0 0-83 110l17 12a83 83 0 0 1 42 103 430 430 0 0 0-16 55c-2 9-4 19-5 28a125 125 0 0 1-125 104h-125a125 125 0 0 1-125-142 792 792 0 0 1 688-686l16 0a125 125 0 0 1 83 32 125 125 0 0 1 42 94v125a125 125 0 0 1-103 120z m21-250a42 42 0 0 0-14-31 44 44 0 0 0-34-10 708 708 0 0 0-613 616 45 45 0 0 0 10 34 42 42 0 0 0 31 14h125a42 42 0 0 0 42-33q2-17 6-34a463 463 0 0 1 19-64l-58-27a42 42 0 0 1-20-56 604 604 0 0 1 291-292 42 42 0 0 1 32 0 42 42 0 0 1 24 22l26 58a570 570 0 0 1 65-19q17-3 34-6a42 42 0 0 0 33-42z" horiz-adv-x="1000" />

<glyph glyph-name="calling" unicode="&#xe9e8;" d="M853 475a42 42 0 1 1-42 42 42 42 0 0 1 42-42z m-125 0a42 42 0 1 1-42 42 42 42 0 0 1 42-42z m-125 0a42 42 0 1 1-42 42 42 42 0 0 1 42-42z m185-167c-9 0-19 3-28 5a393 393 0 0 0-55 17 83 83 0 0 1-103-42l-9-19a520 520 0 0 0-111 84 535 535 0 0 0-84 110l19 12a83 83 0 0 1 41 103 430 430 0 0 0-16 55c-2 10-4 19-5 28a125 125 0 0 1-125 104h-125a125 125 0 0 1-93-42 125 125 0 0 1-31-99 792 792 0 0 1 687-687 107 107 0 0 1 16 0 125 125 0 0 1 125 125v125a125 125 0 0 1-103 121z m20-250a42 42 0 0 0-48-41 713 713 0 0 0-411 202 714 714 0 0 0-201 414 42 42 0 0 0 10 34 42 42 0 0 0 31 14h125a42 42 0 0 0 41-33q3-17 7-34a463 463 0 0 1 19-64l-58-27a42 42 0 0 1-21-56 604 604 0 0 1 292-292 42 42 0 0 1 31 0 42 42 0 0 1 24 22l26 58a570 570 0 0 1 66-19c11-2 22-4 34-6a42 42 0 0 0 32-42z" horiz-adv-x="1000" />

<glyph glyph-name="phone-times" unicode="&#xe9e9;" d="M827 618l75 75a42 42 0 1 1-59 59l-75-75-75 75a42 42 0 0 1-58-59l73-75-74-75a42 42 0 0 1 0-58 42 42 0 0 1 58 0l76 73 75-74a42 42 0 0 1 59 0 42 42 0 0 1 0 59z m-17-310c-9 0-19 3-28 5a393 393 0 0 0-54 17 83 83 0 0 1-104-42l-9-19a507 507 0 0 0-111 84 507 507 0 0 0-83 110l17 12a83 83 0 0 1 42 103 430 430 0 0 0-16 55c-2 9-4 19-5 28a125 125 0 0 1-125 104h-125a125 125 0 0 1-125-142 792 792 0 0 1 688-686l16 0a125 125 0 0 1 83 32 125 125 0 0 1 42 94v125a125 125 0 0 1-103 120z m21-250a42 42 0 0 0-14-31 44 44 0 0 0-34-10 708 708 0 0 0-613 616 45 45 0 0 0 10 34 42 42 0 0 0 31 14h125a42 42 0 0 0 42-33q2-17 6-34a463 463 0 0 1 19-64l-58-27a42 42 0 0 1-20-56 604 604 0 0 1 291-292 42 42 0 0 1 32 0 42 42 0 0 1 24 22l26 58a570 570 0 0 1 65-19q17-3 34-6a42 42 0 0 0 33-42z" horiz-adv-x="1000" />

<glyph glyph-name="envelope-search" unicode="&#xe9ea;" d="M925 421l-72 72a182 182 0 0 1 27 94 180 180 0 1 1-180-180 182 182 0 0 1 95 26l71-72a42 42 0 0 1 59 0 42 42 0 0 1 0 60z m-156 96a99 99 0 0 0-137 0 96 96 0 0 0-28 68 97 97 0 0 0 96 98 96 96 0 0 0 69-28 95 95 0 0 0 28-68 96 96 0 0 0-28-70z m85-250a42 42 0 0 1-41-42v-167a42 42 0 0 0-42-41h-583a42 42 0 0 0-42 41v400l245-245a125 125 0 0 1 177 0l57 59a42 42 0 0 1-59 59l-58-59a42 42 0 0 0-58 0l-245 245h191a42 42 0 0 1 0 83h-208a125 125 0 0 1-125-125v-417a125 125 0 0 1 125-125h583a125 125 0 0 1 125 125v167a42 42 0 0 1-42 42z" horiz-adv-x="1000" />

<glyph glyph-name="phone-volume" unicode="&#xe9eb;" d="M809 308c-9 0-19 3-28 5a411 411 0 0 0-55 17 83 83 0 0 1-103-42l-9-19a549 549 0 0 0-111 83 549 549 0 0 0-84 111l19 9a83 83 0 0 1 42 103 436 436 0 0 0-16 55c-2 10-4 19-5 28a125 125 0 0 1-125 104h-126a125 125 0 0 1-93-42 125 125 0 0 1-30-100 795 795 0 0 1 225-458 795 795 0 0 1 458-225 107 107 0 0 1 17 0 125 125 0 0 1 83 31 125 125 0 0 1 42 94v125a125 125 0 0 1-101 121z m20-250a42 42 0 0 0-14-30 42 42 0 0 0-34-11 715 715 0 0 0-411 202 715 715 0 0 0-203 412 42 42 0 0 0 10 34 42 42 0 0 0 31 14h125a42 42 0 0 0 42-32c0-12 4-23 6-34a458 458 0 0 1 19-65l-58-27a42 42 0 0 1-22-23 42 42 0 0 1 0-32 604 604 0 0 1 292-292 42 42 0 0 1 32 0 42 42 0 0 1 23 22l26 58a517 517 0 0 1 66-19c11-2 23-5 34-6a42 42 0 0 0 32-42z m-246 709c-9 0-19 0-29 0a42 42 0 0 1 7-84l22 0a250 250 0 0 0 250-250c0-7 0-14 0-22a42 42 0 0 1 38-45h4a42 42 0 0 1 41 38c0 10 0 20 0 29a333 333 0 0 1-333 334z m84-334a42 42 0 0 1 83 0 167 167 0 0 1-167 167 42 42 0 0 1 0-83 83 83 0 0 0 84-84z" horiz-adv-x="1000" />

<glyph glyph-name="envelope-upload" unicode="&#xe9ec;" d="M854 267a42 42 0 0 1-41-42v-167a42 42 0 0 0-42-41h-583a42 42 0 0 0-42 41v400l245-245a125 125 0 0 1 177 0l68 68a42 42 0 1 1-59 59l-69-68a42 42 0 0 0-58 0l-245 245h274a42 42 0 0 1 0 83h-291a125 125 0 0 1-125-125v-417a125 125 0 0 1 125-125h583a125 125 0 0 1 125 125v167a42 42 0 0 1-42 42z m71 363l-125 125a42 42 0 0 1-13 8 42 42 0 0 1-32 0 42 42 0 0 1-14-8l-125-125a42 42 0 0 1 59-60l54 55v-233a42 42 0 0 1 84 0v233l53-55a42 42 0 0 1 59 0 42 42 0 0 1 0 60z" horiz-adv-x="1000" />

<glyph glyph-name="forwaded-call" unicode="&#xe9ed;" d="M623 577h149l-33-34a42 42 0 0 1 0-58 42 42 0 0 1 59 0l104 104a42 42 0 0 1 0 59l-104 104a42 42 0 0 1-59-59l33-33h-149a42 42 0 0 1 0-83z m187-269c-9 0-19 3-28 5a393 393 0 0 0-54 17 83 83 0 0 1-104-42l-9-19a507 507 0 0 0-111 84 507 507 0 0 0-83 110l17 12a83 83 0 0 1 42 103 430 430 0 0 0-16 55c-2 9-4 19-5 28a125 125 0 0 1-125 104h-125a125 125 0 0 1-125-142 792 792 0 0 1 688-686l16 0a125 125 0 0 1 83 32 125 125 0 0 1 42 94v125a125 125 0 0 1-103 120z m21-250a42 42 0 0 0-14-31 44 44 0 0 0-34-10 708 708 0 0 0-613 616 45 45 0 0 0 10 34 42 42 0 0 0 31 14h125a42 42 0 0 0 42-33q2-17 6-34a463 463 0 0 1 19-64l-58-27a42 42 0 0 1-20-56 604 604 0 0 1 291-292 42 42 0 0 1 32 0 42 42 0 0 1 24 22l26 58a570 570 0 0 1 65-19q17-3 34-6a42 42 0 0 0 33-42z" horiz-adv-x="1000" />

<glyph glyph-name="envelope-share" unicode="&#xe9ee;" d="M833 267a42 42 0 0 1-41-42v-167a42 42 0 0 0-42-41h-583a42 42 0 0 0-42 41v400l245-245a125 125 0 0 1 88-37 128 128 0 0 1 90 38l72 71a42 42 0 1 1-60 60l-73-73a42 42 0 0 0-58 0l-245 245h233a42 42 0 0 1 0 83h-250a125 125 0 0 1-125-125v-417a125 125 0 0 1 125-125h583a125 125 0 0 1 125 125v167a42 42 0 0 1-42 42z m0 250a83 83 0 0 1-49-17l-73 34 81 36a83 83 0 0 1 41-12 83 83 0 1 1-83 84l-79-37a83 83 0 0 1-46 16 83 83 0 0 1 0-167 78 78 0 0 1 38 10l88-41a83 83 0 1 1 82 94z" horiz-adv-x="1000" />

<glyph glyph-name="envelope-upload-alt" unicode="&#xe9ef;" d="M667 388h-334a125 125 0 0 1-125-125v-208a125 125 0 0 1 125-125h334a125 125 0 0 1 125 125v208a125 125 0 0 1-125 125z m-18-83l-120-122a42 42 0 0 0-58 0l-120 122z m59-250a42 42 0 0 0-41-42h-334a42 42 0 0 0-41 42v191l120-120a125 125 0 0 1 176 0l120 120z m-262 561l12 12v-115a42 42 0 0 1 84 0v115l12-12a42 42 0 1 1 59 59l-83 83a42 42 0 0 1-60 0l-83-83a42 42 0 0 1 0-59 42 42 0 0 1 59 0z" horiz-adv-x="1000" />

<glyph glyph-name="envelope-minus" unicode="&#xe9f0;" d="M875 517a42 42 0 0 1-42-42v-333a42 42 0 0 0-41-42h-584a42 42 0 0 0-41 42v399l245-245a125 125 0 0 1 176 0l150 149a42 42 0 0 1-59 60l-149-150a42 42 0 0 0-60 0l-245 245h317a42 42 0 0 1 0 83h-334a125 125 0 0 1-125-125v-416a125 125 0 0 1 125-125h584a125 125 0 0 1 125 125v333a42 42 0 0 1-42 42z m-167 83h167a42 42 0 0 1 0 83h-167a42 42 0 0 1 0-83z" horiz-adv-x="1000" />

<glyph glyph-name="envelope-receive" unicode="&#xe9f1;" d="M345 591l84-83a42 42 0 0 1 59 0 42 42 0 0 1 0 59l-13 12h150a42 42 0 0 1 0 84h-150l13 12a42 42 0 1 1-59 59l-84-84a42 42 0 0 1-8-13 42 42 0 0 1 0-32 42 42 0 0 1 8-14z m322-178h-334a125 125 0 0 1-125-125v-209a125 125 0 0 1 125-125h334a125 125 0 0 1 125 125v209a125 125 0 0 1-125 125z m-18-84l-120-120a42 42 0 0 0-58 0l-120 120z m59-250a42 42 0 0 0-41-41h-334a42 42 0 0 0-41 41v191l120-119a122 122 0 0 1 88-37 125 125 0 0 1 88 36l120 120z" horiz-adv-x="1000" />

<glyph glyph-name="envelope-redo" unicode="&#xe9f2;" d="M854 256a42 42 0 0 1-41-42v-166a42 42 0 0 0-42-42h-583a42 42 0 0 0-42 42v399l245-245a125 125 0 0 1 88-37 125 125 0 0 1 90 38 42 42 0 0 1 0 58 42 42 0 0 1-60 0 42 42 0 0 0-58 0l-246 245h191a42 42 0 0 1 0 83h-208a125 125 0 0 1-125-125v-416a125 125 0 0 1 125-126h583a125 125 0 0 1 125 126v166a42 42 0 0 1-42 42z m42 458a42 42 0 0 1-42-41h0a208 208 0 1 1-125-375 208 208 0 0 1 138 52 42 42 0 0 1-55 63 125 125 0 1 0 10 177h-51a42 42 0 0 1 0-84h125a42 42 0 0 1 41 42v125a42 42 0 0 1-41 41z" horiz-adv-x="1000" />

<glyph glyph-name="envelope-download-alt" unicode="&#xe9f3;" d="M470 484a42 42 0 0 1 60 0l83 83a42 42 0 0 1 0 59 42 42 0 0 1-59 0l-12-12v114a42 42 0 0 1-84 0v-114l-12 12a42 42 0 0 1-59 0 42 42 0 0 1 0-59z m197-96h-334a125 125 0 0 1-125-125v-208a125 125 0 0 1 125-125h334a125 125 0 0 1 125 125v208a125 125 0 0 1-125 125z m-18-83l-120-122a42 42 0 0 0-58 0l-120 122z m59-250a42 42 0 0 0-41-42h-334a42 42 0 0 0-41 42v191l120-120a125 125 0 0 1 176 0l120 120z" horiz-adv-x="1000" />

<glyph glyph-name="envelope-download" unicode="&#xe9f4;" d="M854 267a42 42 0 0 1-41-42v-167a42 42 0 0 0-42-41h-583a42 42 0 0 0-42 41v400l245-245a125 125 0 0 1 177 0l68 68a42 42 0 1 1-59 59l-69-68a42 42 0 0 0-58 0l-245 245h274a42 42 0 0 1 0 83h-291a125 125 0 0 1-125-125v-417a125 125 0 0 1 125-125h583a125 125 0 0 1 125 125v167a42 42 0 0 1-42 42z m71 279a42 42 0 0 1-59 0l-53-54v233a42 42 0 0 1-84 0v-233l-54 54a42 42 0 1 1-59-59l125-125a42 42 0 0 1 14-9 39 39 0 0 1 32 0 42 42 0 0 1 13 9l125 125a42 42 0 0 1 0 59z" horiz-adv-x="1000" />

<glyph glyph-name="brightness-low" unicode="&#xe9f5;" d="M125 392a42 42 0 1 1 42-42 42 42 0 0 1-42 42z m80-278a42 42 0 1 1 59 0 42 42 0 0 1-59 0z m59 472a42 42 0 1 1-59 0 42 42 0 0 1 59 0z m236 97a42 42 0 1 1-42 42 42 42 0 0 1 42-42z m236-569a42 42 0 1 1 59 0 42 42 0 0 1-59 0z m139 278a42 42 0 1 1 42-42 42 42 0 0 1-42 42z m-139 253a42 42 0 1 1 59 0 42 42 0 0 1-59 0z m-236-628a42 42 0 1 1 42-42 42 42 0 0 1-42 42z m0 583a250 250 0 1 1 250-250 250 250 0 0 1-250 250z m0-417a167 167 0 1 0 167 167 167 167 0 0 0-167-167z" horiz-adv-x="1000" />

<glyph glyph-name="envelope-shield" unicode="&#xe9f6;" d="M901 637a42 42 0 0 1-35 8 114 114 0 0 0-91 19 42 42 0 0 1-50 0 114 114 0 0 0-91-19 42 42 0 0 1-51-41v-138a193 193 0 0 1 77-154l65-48a42 42 0 0 1 50 0l65 48a193 193 0 0 1 77 154v138a42 42 0 0 1-16 33z m-68-171a109 109 0 0 0-41-87l-42-29-42 30a109 109 0 0 0-41 87v91a195 195 0 0 1 83 23 195 195 0 0 1 83-23z m42-250a42 42 0 0 1-42-41v-125a42 42 0 0 0-41-42h-584a42 42 0 0 0-41 42v397l245-245a125 125 0 0 1 88-37 125 125 0 0 1 89 38l-29 30-31 28a42 42 0 0 0-58 0l-246 245h233a42 42 0 0 1 0 83h-250a125 125 0 0 1-125-125v-416a125 125 0 0 1 125-126h584a125 125 0 0 1 125 126v125a42 42 0 0 1-42 41z" horiz-adv-x="1000" />

<glyph glyph-name="envelope-open" unicode="&#xe9f7;" d="M842 483h0l0 0h0l-259 251a118 118 0 0 1-162 0l-259-250h0v0a108 108 0 0 1-37-80v-358a115 115 0 0 1 116-113h518a115 115 0 0 1 116 113v358a111 111 0 0 1-33 79z m-365 191a35 35 0 0 0 46 0l227-220-228-220a35 35 0 0 0-47 0l-225 220z m315-628a32 32 0 0 0-33-29h-518a32 32 0 0 0-33 29v331l169-162-69-67a42 42 0 0 1 0-59 42 42 0 0 1 30-13 42 42 0 0 1 29 12l73 71a117 117 0 0 1 122 0l74-71a42 42 0 0 1 29-12 42 42 0 0 1 30 13 42 42 0 0 1 0 59l-70 67 167 162z" horiz-adv-x="1000" />

<glyph glyph-name="envelope-lock" unicode="&#xe9f8;" d="M854 540v49a125 125 0 1 1-250 0v-49a125 125 0 0 1-83-117v-84a125 125 0 0 1 125-125h166a125 125 0 0 1 125 125v84a125 125 0 0 1-83 117z m-166 49a42 42 0 1 0 83 0v-41h-83z m166-250a42 42 0 0 0-41-41h-167a42 42 0 0 0-42 41v84a42 42 0 0 0 42 41h167a42 42 0 0 0 41-41z m0-208a42 42 0 0 1-41-42v-41a42 42 0 0 0-42-42h-583a42 42 0 0 0-42 42v399l245-245a42 42 0 0 1 59 59l-245 245h233a42 42 0 0 1 0 83h-250a125 125 0 0 1-125-125v-416a125 125 0 0 1 125-126h583a125 125 0 0 1 125 126v41a42 42 0 0 1-42 42z" horiz-adv-x="1000" />

<glyph glyph-name="keyboard-show" unicode="&#xe9f9;" d="M280 421a42 42 0 0 1-72-29 42 42 0 1 1 80 16 42 42 0 0 1-8 13z m107 108a42 42 0 0 1 30-12 42 42 0 0 1 29 12 48 48 0 0 1 9 14 42 42 0 0 1 3 15 44 44 0 0 1-12 30l-6 5-7 4a25 25 0 0 1-8 3 42 42 0 0 1-38-11 42 42 0 0 1-9-14 39 39 0 0 1 0-32 48 48 0 0 1 9-14z m-114 64a32 32 0 0 1-7 4l-8 3a42 42 0 0 1-38-11 42 42 0 0 1-8-14 39 39 0 0 1 0-32 48 48 0 0 1 8-13 48 48 0 0 1 14-9 35 35 0 0 1 16-4 42 42 0 0 1 30 12 48 48 0 0 1 8 14 42 42 0 0 1 4 15 44 44 0 0 1-12 30z m257-505a42 42 0 0 1-60 0l-83-83a42 42 0 0 1 59-60l54 55 54-55a42 42 0 0 1 59 0 42 42 0 0 1 0 60z m250 333a42 42 0 0 1-60 0 42 42 0 0 1-8-13 42 42 0 0 1 54-55 48 48 0 0 1 14 9 42 42 0 0 1 12 30 35 35 0 0 1-4 16 42 42 0 0 1-8 13z m-197 12h-166a42 42 0 0 1 0-83h166a42 42 0 0 1 0 83z m250 334h-666a125 125 0 0 1-125-125v-334a125 125 0 0 1 125-125h666a125 125 0 0 1 125 125v334a125 125 0 0 1-125 125z m42-459a42 42 0 0 0-42-41h-666a42 42 0 0 0-42 41v334a42 42 0 0 0 42 41h666a42 42 0 0 0 42-41z m-141 289a39 39 0 0 1-14-9 44 44 0 0 1-12-30 42 42 0 0 1 4-15 48 48 0 0 1 8-14 42 42 0 0 1 30-12 42 42 0 0 1 30 12 48 48 0 0 1 8 14 42 42 0 0 1 4 15 44 44 0 0 1-12 30 42 42 0 0 1-46 9z m-127-4l-8 4-7 3a42 42 0 0 1-24-2 39 39 0 0 1-14-9 42 42 0 0 1-9-14 39 39 0 0 1 0-32 48 48 0 0 1 9-13 42 42 0 0 1 29-13 42 42 0 0 1 30 12 48 48 0 0 1 9 14 42 42 0 0 1 3 15 44 44 0 0 1-12 30z" horiz-adv-x="1000" />

<glyph glyph-name="truck" unicode="&#xe9fa;" d="M42 329v-208a42 42 0 0 1 41-42h42a125 125 0 0 1 250 0h250a125 125 0 0 1 250 0h42a42 42 0 0 1 41 42v500a125 125 0 0 1-125 125h-375a125 125 0 0 1-125-125v-83h-83a125 125 0 0 1-100-50l-100-134a25 25 0 0 1-3-6l-2-4a42 42 0 0 1-3-15z m666-250a42 42 0 1 0 42-41 42 42 0 0 0-42 41z m-291 542a42 42 0 0 0 41 42h375a42 42 0 0 0 42-42v-458h-33a125 125 0 0 1-185 0h-240z m-84-250h-166l50 67a42 42 0 0 0 33 16h83z m-125-292a42 42 0 1 0 42-41 42 42 0 0 0-42 41z m-83 209h208v-116a125 125 0 0 1-175-9h-33z" horiz-adv-x="1000" />

<glyph glyph-name="envelopes" unicode="&#xe9fb;" d="M708-51h-500a125 125 0 0 0-125 125v333a42 42 0 0 1-83 0v-333a208 208 0 0 1 208-209h500a42 42 0 0 1 0 84z m167 750h-583a125 125 0 0 1-125-125v-417a125 125 0 0 1 125-125h583a125 125 0 0 1 125 125v417a125 125 0 0 1-125 125z m-17-84l-245-245a42 42 0 0 0-59 0l-245 245z m59-458a42 42 0 0 0-42-42h-583a42 42 0 0 0-42 42v401l245-245a125 125 0 0 1 177 0l245 245z" horiz-adv-x="1000" />

<glyph glyph-name="mailbox" unicode="&#xe9fc;" d="M333 350h84a42 42 0 0 1 0 83h-84a42 42 0 0 1 0-83z m375 250h-208v83h42a42 42 0 0 1 0 84h-84a42 42 0 0 1-41-42v-125h-125a167 167 0 0 1-167-167v-250a42 42 0 0 1 42-41h250v-167a42 42 0 0 1 83 0v167h333a42 42 0 0 1 42 41v250a167 167 0 0 1-167 167z m-166-167v-208h-334v208a83 83 0 0 0 84 84h273a163 163 0 0 1-23-84z m250-208h-167v208a83 83 0 0 0 167 0z" horiz-adv-x="1000" />

<glyph glyph-name="envelope-heart" unicode="&#xe9fd;" d="M854 308a42 42 0 0 1-41-41v-167a42 42 0 0 0-42-42h-583a42 42 0 0 0-42 42v400l245-246a125 125 0 0 1 88-36 125 125 0 0 1 89 37l37 37a42 42 0 0 1-58 58l-39-38a42 42 0 0 0-58 0l-245 246h191a42 42 0 0 1 0 84h-208a125 125 0 0 1-125-125v-417a125 125 0 0 1 125-125h583a125 125 0 0 1 125 125v167a42 42 0 0 1-42 41z m44 375a139 139 0 0 1-162 23 135 135 0 0 1-161-214l133-130a44 44 0 0 1 30-12 42 42 0 0 1 30 12l132 132a136 136 0 0 1-2 189z m-59-130l-103-103-102 103a52 52 0 0 0 74 74 42 42 0 0 1 59 0 53 53 0 0 0 74 0 53 53 0 0 0-2-74z" horiz-adv-x="1000" />

<glyph glyph-name="space-key" unicode="&#xe9fe;" d="M875 475a42 42 0 0 1-42-42v-125h-666v125a42 42 0 0 1-84 0v-166a42 42 0 0 1 42-42h750a42 42 0 0 1 42 42v166a42 42 0 0 1-42 42z" horiz-adv-x="1000" />

<glyph glyph-name="keyboard-alt" unicode="&#xe9ff;" d="M280 463a42 42 0 0 1-60 0 42 42 0 0 1-8-14 42 42 0 0 1 8-45 48 48 0 0 1 14-9 35 35 0 0 1 16-3 42 42 0 0 1 38 57 42 42 0 0 1-8 14z m137-71a42 42 0 0 1 38 57 42 42 0 0 1-9 14 42 42 0 0 1-37 12 25 25 0 0 1-8-2l-8-4-6-5a44 44 0 0 1-12-31 42 42 0 0 1 42-41z m-151-87a42 42 0 0 1-32 0 42 42 0 0 1-26-38 42 42 0 0 1 58-39 48 48 0 0 1 14 9 42 42 0 0 1 12 30 42 42 0 0 1-12 29 39 39 0 0 1-14 9z m317 3h-166a42 42 0 0 1 0-83h166a42 42 0 0 1 0 83z m30 155a42 42 0 0 1-59 0 42 42 0 0 1-9-14 42 42 0 1 1 80-16 35 35 0 0 1-3 16 42 42 0 0 1-9 14z m160-162a32 32 0 0 1-7 4 42 42 0 0 1-32 0 48 48 0 0 1-14-9 44 44 0 0 1-12-29 42 42 0 1 1 84 0 44 44 0 0 1-12 29z m60 341h-666a125 125 0 0 1-125-125v-334a125 125 0 0 1 125-125h666a125 125 0 0 1 125 125v334a125 125 0 0 1-125 125z m42-459a42 42 0 0 0-42-41h-666a42 42 0 0 0-42 41v334a42 42 0 0 0 42 41h666a42 42 0 0 0 42-41z m-95 280a42 42 0 0 1-72-30 42 42 0 1 1 80 16 42 42 0 0 1-8 14z" horiz-adv-x="1000" />

<glyph glyph-name="envelope-edit" unicode="&#xea00;" d="M583 370h101a42 42 0 0 1 30 13l191 190a42 42 0 0 1 0 60l-101 100a42 42 0 0 1-59 0l-191-190a44 44 0 0 1-12-30v-101a42 42 0 0 1 41-42z m42 125l149 150 42-42-149-149h-42z m250-83a42 42 0 0 1-42-42v-291a42 42 0 0 0-41-42h-584a42 42 0 0 0-41 42v400l245-245a125 125 0 0 1 178 0 42 42 0 0 1 0 58 42 42 0 0 1-60 0 42 42 0 0 0-58 0l-247 246h192a42 42 0 0 1 0 83h-209a125 125 0 0 1-125-125v-416a125 125 0 0 1 125-125h584a125 125 0 0 1 125 125v291a42 42 0 0 1-42 42z" horiz-adv-x="1000" />

<glyph glyph-name="postcard" unicode="&#xea01;" d="M708 392h42a42 42 0 0 1 42 41v42a42 42 0 0 1-42 42h-42a42 42 0 0 1-41-42v-42a42 42 0 0 1 41-41z m-458-42h208a42 42 0 0 1 0 83h-208a42 42 0 0 1 0-83z m667 333h-834a42 42 0 0 1-41-41v-584a42 42 0 0 1 41-41h834a42 42 0 0 1 41 41v584a42 42 0 0 1-41 41z m-42-583h-750v500h750z m-625 83h208a42 42 0 0 1 0 84h-208a42 42 0 0 1 0-84z" horiz-adv-x="1000" />

<glyph glyph-name="fast-mail-alt" unicode="&#xea02;" d="M654 475a122 122 0 0 1-42 71v0h0a125 125 0 0 1-83 31h-329a125 125 0 0 1-96-42h0l0 0 0-3a125 125 0 0 1-27-99l36-208a125 125 0 0 1 125-103h331a125 125 0 0 1 96 44 125 125 0 0 1 25 101z m-142 21l-98-110a42 42 0 0 0-57-5l-142 115z m87-277a42 42 0 0 0-31-15h-331a42 42 0 0 0-42 35l-34 194 143-116a125 125 0 0 1 173 14l98 111 33-189a42 42 0 0 0-9-34z m285 194h-84a42 42 0 0 1 0-84h84a42 42 0 0 1 0 84z m0 83a42 42 0 0 1 0 83h-125a42 42 0 0 1 0-83z" horiz-adv-x="1000" />

<glyph glyph-name="envelope-question" unicode="&#xea03;" d="M699 626a42 42 0 0 1 56 16 42 42 0 0 0 37 21 42 42 0 0 0 0-84 42 42 0 0 1 0-83 125 125 0 1 1-109 187 42 42 0 0 1 16-57z m176-338a42 42 0 0 1-42-42v-167a42 42 0 0 0-41-41h-584a42 42 0 0 0-41 41v400l245-246a125 125 0 0 1 176 0l69 69a42 42 0 1 1-59 59l-69-68a42 42 0 0 0-58 0l-246 245h317a42 42 0 0 1 0 83h-334a125 125 0 0 1-125-125v-417a125 125 0 0 1 125-125h584a125 125 0 0 1 125 125v167a42 42 0 0 1-42 42z m-113 154a42 42 0 0 1 0-59l6-5a32 32 0 0 1 8-4 27 27 0 0 1 7-2l9 0a42 42 0 0 1 29 71 42 42 0 0 1-59-1z" horiz-adv-x="1000" />

<glyph glyph-name="fast-mail" unicode="&#xea04;" d="M200 413h-84a42 42 0 1 1 0-84h84a42 42 0 0 1 0 83z m699 118l0 2 0 0h0a125 125 0 0 1-99 46h-330a125 125 0 0 1-84-31h0v0a122 122 0 0 1-40-73l-36-208a125 125 0 0 1 27-102 125 125 0 0 1 96-45h330a125 125 0 0 1 125 103l37 209a125 125 0 0 1-26 99z m-114-35l-142-115a42 42 0 0 0-58 5l-97 110z m20-257a42 42 0 0 0-42-35h-330a42 42 0 0 0-32 15 42 42 0 0 0-9 34l33 189 98-111a125 125 0 0 1 172-15l144 117z m-564 340h-125a42 42 0 1 1 0-83h125a42 42 0 0 1 0 83z" horiz-adv-x="1000" />

<glyph glyph-name="envelope-info" unicode="&#xea05;" d="M875 288a42 42 0 0 1-42-42v-167a42 42 0 0 0-41-41h-584a42 42 0 0 0-41 41v400l245-245a125 125 0 0 1 176 0l150 149a42 42 0 0 1-59 59l-149-149a42 42 0 0 0-60 0l-245 245h483a42 42 0 0 1 0 83h-500a125 125 0 0 1-125-125v-417a125 125 0 0 1 125-125h584a125 125 0 0 1 125 125v167a42 42 0 0 1-42 42z m0 375a44 44 0 0 1 30 12l5 6a23 23 0 0 1 3 7 27 27 0 0 1 4 8 57 57 0 0 1 0 8 44 44 0 0 1-12 30 42 42 0 0 1-60 0 42 42 0 0 1 0-59 44 44 0 0 1 30-12z m0-42a42 42 0 0 1-42-42v-166a42 42 0 0 1 84 0v166a42 42 0 0 1-42 42z" horiz-adv-x="1000" />

<glyph glyph-name="laptop-cloud" unicode="&#xea06;" d="M188 433h229a125 125 0 0 1 44 242 167 167 0 0 1-311-42 104 104 0 0 1 38-200z m0 125a42 42 0 0 1 41 42 83 83 0 0 0 162 27 42 42 0 0 1 33-28 42 42 0 0 0 34-41 42 42 0 0 0-41-41h-229a21 21 0 0 0 0 41z m687-375h-42v292a125 125 0 0 1-125 125h-41a42 42 0 0 1 0-83h41a42 42 0 0 0 42-42v-292h-500v125a42 42 0 0 1-83 0v-125h-42a42 42 0 0 1-42-41v-84a125 125 0 0 1 125-125h584a125 125 0 0 1 125 125v84a42 42 0 0 1-42 41z m-42-125a42 42 0 0 0-41-41h-584a42 42 0 0 0-41 41v42h666z" horiz-adv-x="1000" />

<glyph glyph-name="desktop-cloud-alt" unicode="&#xea07;" d="M188 433h229a125 125 0 0 1 44 242 167 167 0 0 1-311-42 104 104 0 0 1 38-200z m0 125a42 42 0 0 1 41 42 83 83 0 0 0 162 27 42 42 0 0 1 33-28 42 42 0 0 0 34-41 42 42 0 0 0-41-41h-229a21 21 0 0 0 0 41z m604 209h-209a42 42 0 0 1 0-84h209a42 42 0 0 0 41-41v-292h-708a42 42 0 0 1-42-42v-83a125 125 0 0 1 125-125h125v-83h-125a42 42 0 0 1 0-84h584a42 42 0 0 1 0 84h-125v83h125a125 125 0 0 1 125 125v417a125 125 0 0 1-125 125z m-209-750h-166v83h166z m250 208a42 42 0 0 0-41-42h-584a42 42 0 0 0-41 42v42h666z" horiz-adv-x="1000" />

<glyph glyph-name="envelope-star" unicode="&#xea08;" d="M568 444l-12-72a65 65 0 0 1 27-64 61 61 0 0 1 66-3l59 33 60-33a61 61 0 0 1 65 3 65 65 0 0 1 27 63l-13 72 50 51a64 64 0 0 1-35 109l-67 10-31 64a63 63 0 0 1-113 0l-31-64-67-10a64 64 0 0 1-35-109z m77 89a63 63 0 0 1 47 35l16 35 17-35a65 65 0 0 1 47-35l42-6-31-31a65 65 0 0 1-17-56l6-42-32 18a62 62 0 0 1-60 0l-33-18 6 42a64 64 0 0 1-17 55l-31 32z m230-319a42 42 0 0 1-42-41v-125a42 42 0 0 0-41-42h-584a42 42 0 0 0-41 42v399l245-245a122 122 0 0 1 87-37l11 0a42 42 0 0 1 38 45 42 42 0 0 1-45 38 39 39 0 0 0-32 12l-246 246h150a42 42 0 0 1 0 83h-167a125 125 0 0 1-125-125v-416a125 125 0 0 1 125-126h584a125 125 0 0 1 125 126v125a42 42 0 0 1-42 41z" horiz-adv-x="1000" />

<glyph glyph-name="envelope-times" unicode="&#xea09;" d="M875 392a42 42 0 0 1-42-42v-250a42 42 0 0 0-41-42h-584a42 42 0 0 0-41 42v400l245-246a125 125 0 0 1 88-36 128 128 0 0 1 90 37l71 72a42 42 0 1 1-59 59l-73-73a42 42 0 0 0-58 0l-246 245h317a42 42 0 0 1 0 84h-334a125 125 0 0 1-125-125v-417a125 125 0 0 1 125-125h584a125 125 0 0 1 125 125v250a42 42 0 0 1-42 42z m-25 208l55 54a42 42 0 1 1-60 59l-53-54-54 54a42 42 0 0 1-59-59l54-54-54-54a42 42 0 0 1 0-59 42 42 0 0 1 59 0l54 54 53-54a42 42 0 0 1 60 0 42 42 0 0 1 0 59z" horiz-adv-x="1000" />

<glyph glyph-name="luggage-cart" unicode="&#xea0a;" d="M83 288v-84a42 42 0 0 1 42-41h417a125 125 0 0 1 250 0h83a42 42 0 0 1 42 41v334a125 125 0 0 1-125 125h-417a125 125 0 0 1-125-125v-292h-83v41a42 42 0 0 1-84 0z m542-125a42 42 0 1 0 42-42 42 42 0 0 0-42 42z m-292 250h500v-167h-74a125 125 0 0 1-185 0h-241z m0 125a42 42 0 0 0 42 41h417a42 42 0 0 0 41-41v-42h-500z" horiz-adv-x="1000" />

<glyph glyph-name="envelope-bookmark" unicode="&#xea0b;" d="M875 214a42 42 0 0 1-42-41v-125a42 42 0 0 0-41-42h-584a42 42 0 0 0-41 42v399l245-245a125 125 0 0 1 87-37 125 125 0 0 1 60 15 42 42 0 0 1 16 57 42 42 0 0 1-56 17 42 42 0 0 0-48 7l-246 245h275a42 42 0 0 1 0 83h-292a125 125 0 0 1-125-125v-416a125 125 0 0 1 125-126h584a125 125 0 0 1 125 126v125a42 42 0 0 1-42 41z m0 500h-208a42 42 0 0 1-42-41v-334a42 42 0 0 1 65-34l81 54 79-54a44 44 0 0 1 25-7 42 42 0 0 1 17 3 42 42 0 0 1 25 38v334a42 42 0 0 1-42 41z m-42-296l-39 26a42 42 0 0 1-46 0l-40-26v213h125z" horiz-adv-x="1000" />

<glyph glyph-name="missed-call" unicode="&#xea0c;" d="M250 538a42 42 0 0 1 42 42v24l120-120a125 125 0 0 1 176 0l192 191a42 42 0 0 1 0 59 42 42 0 0 1-60 0l-190-191a42 42 0 0 0-60 0l-120 120h25a42 42 0 0 1 0 83h-125a42 42 0 0 1-38-25 45 45 0 0 1-4-16v-125a42 42 0 0 1 42-42z m664-307a678 678 0 0 1-828 0 112 112 0 0 1-42-83 111 111 0 0 1 33-86l73-75a112 112 0 0 1 144-12l20 13a339 339 0 0 0 41 23 77 77 0 0 1 42 96l-4 10a437 437 0 0 0 218 0l-4-10a77 77 0 0 1 42-96 339 339 0 0 0 41-23l20-13a108 108 0 0 1 64-21 113 113 0 0 1 80 33l76 76a111 111 0 0 1 28 86 112 112 0 0 1-44 82z m-47-110l-75-75a28 28 0 0 0-36-4c-8 6-16 11-25 16a485 485 0 0 1-45 26l16 45a42 42 0 0 1-25 54 518 518 0 0 1-354 0 42 42 0 0 1-25-54l17-46a408 408 0 0 1-46-25l-24-16a28 28 0 0 0-37 4l-75 75a28 28 0 0 0-8 21 32 32 0 0 0 12 22 595 595 0 0 0 726 0 32 32 0 0 0 12-22 28 28 0 0 0-8-21z" horiz-adv-x="1000" />

<glyph glyph-name="user" unicode="&#xea0d;" d="M655 320a250 250 0 1 1-310 0 417 417 0 0 1-259-340 42 42 0 0 1 84-10 333 333 0 0 0 662 0 42 42 0 0 1 42-37h4a42 42 0 0 1 37 46 417 417 0 0 1-260 341z m-155 30a167 167 0 1 0 167 167 167 167 0 0 0-167-167z" horiz-adv-x="1000" />

<glyph glyph-name="user-plus" unicode="&#xea0e;" d="M875 413h-42v41a42 42 0 0 1-83 0v-41h-42a42 42 0 0 1 0-84h42v-41a42 42 0 0 1 83 0v41h42a42 42 0 0 1 0 83z m-321-72a205 205 0 0 1 71 155 208 208 0 0 1-417 0 205 205 0 0 1 71-155 333 333 0 0 1-196-303 42 42 0 0 1 84 0 250 250 0 0 0 500 0 42 42 0 0 1 83 0 333 333 0 0 1-196 303z m-137 30a125 125 0 1 0 125 125 125 125 0 0 0-125-125z" horiz-adv-x="1000" />

<glyph glyph-name="envelope-alt" unicode="&#xea0f;" d="M792 683h-584a125 125 0 0 1-125-125v-416a125 125 0 0 1 125-125h584a125 125 0 0 1 125 125v416a125 125 0 0 1-125 125z m-584-83h584a42 42 0 0 0 41-42l-333-203-333 203a42 42 0 0 0 41 42z m625-458a42 42 0 0 0-41-42h-584a42 42 0 0 0-41 42v321l311-190a42 42 0 0 1 42 0l313 190z" horiz-adv-x="1000" />

<glyph glyph-name="user-location" unicode="&#xea10;" d="M604 398a129 129 0 1 1-209 0 195 195 0 0 1-46-42 42 42 0 1 1 68-53 109 109 0 0 0 85 42h0a109 109 0 0 0 85-42 42 42 0 0 1 33-15 42 42 0 0 1 32 67 195 195 0 0 1-48 43z m-104 30h0a45 45 0 1 0 45 47 45 45 0 0 0-45-47z m353 21a354 354 0 0 1-549 261 357 357 0 0 1-156-261 353 353 0 0 1 102-285l221-221a42 42 0 0 1 59 0l220 221a353 353 0 0 1 103 285z m-161-226l-192-192-192 192a270 270 0 0 0-78 217 274 274 0 0 0 121 202 270 270 0 0 0 298 0 274 274 0 0 0 121-201 270 270 0 0 0-78-218z" horiz-adv-x="1000" />

<glyph glyph-name="users-alt" unicode="&#xea11;" d="M513 341a205 205 0 0 1 70 155 208 208 0 0 1-416 0 205 205 0 0 1 70-155 333 333 0 0 1-195-303 42 42 0 0 1 83 0 250 250 0 0 0 500 0 42 42 0 0 1 83 0 333 333 0 0 1-195 303z m-138 30a125 125 0 1 0 125 125 125 125 0 0 0-125-125z m406-13a208 208 0 0 1-156 346 42 42 0 0 1 0-83 125 125 0 0 0 125-125 125 125 0 0 0-62-108 42 42 0 0 1-21-35 42 42 0 0 1 18-36l17-11 5-3a292 292 0 0 0 167-265 42 42 0 0 1 83 0 375 375 0 0 1-176 320z" horiz-adv-x="1000" />

<glyph glyph-name="book-reader" unicode="&#xea12;" d="M841 425a496 496 0 0 1-91 8c-17 0-35 0-52-3a246 246 0 0 1-79 69 159 159 0 0 1 41 107 161 161 0 0 1-321 0 159 159 0 0 1 41-107 255 255 0 0 1-79-69c-16 3-33 3-51 3a496 496 0 0 1-91-8 42 42 0 0 1-34-42v-344a42 42 0 0 1 15-32 42 42 0 0 1 34-9 406 406 0 0 0 76 9 412 412 0 0 0 227-68h0l0 0 6-2h0a45 45 0 0 1 17-4 36 36 0 0 1 12 2l3 0 5 3 0 0h0a412 412 0 0 0 230 69 406 406 0 0 0 76-7 42 42 0 0 1 34 9 42 42 0 0 1 15 32v344a42 42 0 0 1-34 40z m-341 258a78 78 0 0 0 0-154h0a78 78 0 0 0 0 154z m-42-638a497 497 0 0 1-208 45c-14 0-27 0-42-2v262a401 401 0 0 0 105-2l5 0a417 417 0 0 0 140-53z m42 322a490 490 0 0 1-57 28l-3 0c-14 5-27 11-42 15a167 167 0 0 0 102 36h0a167 167 0 0 0 102-35 518 518 0 0 1-102-44z m292-279a483 483 0 0 1-250-41v250a407 407 0 0 0 140 51l8 0a391 391 0 0 0 102 2z" horiz-adv-x="1000" />

<glyph glyph-name="cloud-bookmark" unicode="&#xea13;" d="M625 392h-208a42 42 0 0 1-42-42v-333a42 42 0 0 1 65-35l81 54 79-52a42 42 0 0 1 25-9 42 42 0 0 1 18 4 42 42 0 0 1 24 38v333a42 42 0 0 1-42 42z m-42-297l-39 26a42 42 0 0 1-46 0l-40-26v213h125z m185 454a292 292 0 0 1-557-79 167 167 0 0 1 39-328 42 42 0 0 1 0 83 83 83 0 0 0 0 167 42 42 0 0 1 42 41 208 208 0 0 0 405 67 42 42 0 0 1 33-27 125 125 0 0 0 41-231 42 42 0 1 1 42-72 208 208 0 0 1 104 180 208 208 0 0 1-149 199z" horiz-adv-x="1000" />

<glyph glyph-name="phone-alt" unicode="&#xea14;" d="M810 308c-9 0-19 3-28 5a393 393 0 0 0-54 17 83 83 0 0 1-104-42l-9-19a507 507 0 0 0-111 84 507 507 0 0 0-83 110l17 12a83 83 0 0 1 42 103 430 430 0 0 0-16 55c-2 9-4 19-5 28a125 125 0 0 1-125 104h-125a125 125 0 0 1-125-142 792 792 0 0 1 688-686l16 0a125 125 0 0 1 83 32 125 125 0 0 1 42 94v125a125 125 0 0 1-103 120z m21-250a42 42 0 0 0-14-31 44 44 0 0 0-34-10 708 708 0 0 0-613 616 45 45 0 0 0 10 34 42 42 0 0 0 31 14h125a42 42 0 0 0 42-33q2-17 6-34a463 463 0 0 1 19-64l-58-27a42 42 0 0 1-20-56 604 604 0 0 1 291-292 42 42 0 0 1 32 0 42 42 0 0 1 24 22l26 58a570 570 0 0 1 65-19q17-3 34-6a42 42 0 0 0 33-42z" horiz-adv-x="1000" />

<glyph glyph-name="cloud-computing" unicode="&#xea15;" d="M875 17h-125a42 42 0 0 0-42 41v125a208 208 0 0 1 60 408 292 292 0 0 1-557-79 167 167 0 0 1 39-329h42v-125a42 42 0 0 0-42-41h-125a42 42 0 0 1 0-84h125a125 125 0 0 1 125 125v125h83v-208a42 42 0 0 1 84 0v208h83v-125a125 125 0 0 1 125-125h125a42 42 0 0 1 0 84z m-625 250a83 83 0 0 0 0 166 42 42 0 0 1 42 42 208 208 0 0 0 405 67 42 42 0 0 1 33-28 125 125 0 0 0 103-122 125 125 0 0 0-125-125z" horiz-adv-x="1000" />

<glyph glyph-name="cloud-check" unicode="&#xea16;" d="M595 259l-137-137-53 53a42 42 0 0 1-60 0 42 42 0 0 1 0-58l84-84a42 42 0 0 1 59 0l167 167a42 42 0 0 1 0 59 42 42 0 0 1-60 0z m173 244a292 292 0 0 1-557-79 167 167 0 0 1-16-319 42 42 0 1 1 27 78 83 83 0 0 0-55 80 83 83 0 0 0 83 83 42 42 0 0 1 42 42 208 208 0 0 0 405 66 42 42 0 0 1 33-27 125 125 0 0 0 10-244 42 42 0 0 1 10-83l10 0a208 208 0 0 1 8 401z" horiz-adv-x="1000" />

<glyph glyph-name="user-minus" unicode="&#xea17;" d="M875 413h-167a42 42 0 0 1 0-84h167a42 42 0 0 1 0 83z m-321-72a205 205 0 0 1 71 155 208 208 0 0 1-417 0 205 205 0 0 1 71-155 333 333 0 0 1-196-303 42 42 0 0 1 84 0 250 250 0 0 0 500 0 42 42 0 0 1 83 0 333 333 0 0 1-196 303z m-137 30a125 125 0 1 0 125 125 125 125 0 0 0-125-125z" horiz-adv-x="1000" />

<glyph glyph-name="cloud-times" unicode="&#xea18;" d="M768 508a292 292 0 0 1-557-79 167 167 0 0 1 39-329 42 42 0 0 1 0 83 83 83 0 0 0 0 167 42 42 0 0 1 42 42 208 208 0 0 0 405 67 42 42 0 0 1 33-28 125 125 0 0 0 10-243 42 42 0 0 1 20-81 208 208 0 0 1 8 400z m-155-253a42 42 0 0 1-59 0l-54-55-54 55a42 42 0 0 1-59-60l54-53-54-54a42 42 0 0 1 0-59 42 42 0 0 1 59 0l54 54 54-54a42 42 0 0 1 59 0 42 42 0 0 1 0 59l-54 54 54 53a42 42 0 0 1 0 60z" horiz-adv-x="1000" />

<glyph glyph-name="cloud-block" unicode="&#xea19;" d="M768 528a292 292 0 0 1-557-78 167 167 0 0 1-16-320 47 47 0 0 1 13-2 42 42 0 0 1 14 84 83 83 0 0 0-55 76 83 83 0 0 0 83 83 42 42 0 0 1 42 42 208 208 0 0 0 405 67 42 42 0 0 1 33-28 125 125 0 0 0 41-231 42 42 0 1 1 42-72 208 208 0 0 1 104 180 208 208 0 0 1-149 199z m-386-250a167 167 0 1 1 236 0 171 171 0 0 1-236 2z m35-115a83 83 0 0 0 83 83 87 87 0 0 0 21-3l-101-101a87 87 0 0 0-3 21z m142-59a83 83 0 0 0-80-21l101 100a87 87 0 0 0 3-21 83 83 0 0 0-24-58z" horiz-adv-x="1000" />

<glyph glyph-name="columns" unicode="&#xea1a;" d="M875 767h-750a42 42 0 0 1-42-42v-750a42 42 0 0 1 42-42h750a42 42 0 0 1 42 42v750a42 42 0 0 1-42 42z m-417-750h-291v666h291z m375 0h-291v666h291z" horiz-adv-x="1000" />

<glyph glyph-name="web-section" unicode="&#xea1b;" d="M875 767h-750a42 42 0 0 1-42-42v-750a42 42 0 0 1 42-42h750a42 42 0 0 1 42 42v750a42 42 0 0 1-42 42z m-292-750h-416v666h416z m250 0h-166v666h166z" horiz-adv-x="1000" />

<glyph glyph-name="grid" unicode="&#xea1c;" d="M875 767h-750a42 42 0 0 1-42-42v-750a42 42 0 0 1 42-42h750a42 42 0 0 1 42 42v750a42 42 0 0 1-42 42z m-417-750h-291v166h291z m0 250h-291v166h291z m375-250h-291v166h291z m0 250h-291v166h291z m0 250h-666v166h666z" horiz-adv-x="1000" />

<glyph glyph-name="web-grid-alt" unicode="&#xea1d;" d="M875 767h-750a42 42 0 0 1-42-42v-750a42 42 0 0 1 42-42h750a42 42 0 0 1 42 42v750a42 42 0 0 1-42 42z m-417-750h-291v416h291z m375 0h-291v416h291z m0 500h-666v166h666z" horiz-adv-x="1000" />
</font>
</defs>
</svg>
